~ Hacker ~

Arjun Reddy (2017) Telugu HDRip x264 700MB ESubs

Recommended Posts

~ Hacker ~    9

Arjun Reddy (2017) Telugu HDRip x264 700MB ESubs

arjun-reddy-movie-release-date-poster_b_2907170406.jpg

InFo

Quote

Video
ID                                       : 1
Format                                   : AVC
Format/Info                              : Advanced Video Codec
Format profile                           : [email protected]
Format settings                          : CABAC / 4 Ref Frames
Format settings, CABAC                   : Yes
Format settings, RefFrames               : 4 frames
Codec ID                                 : V_MPEG4/ISO/AVC
Duration                                 : 3 h 1 min
Bit rate                                 : 474 kb/s
Width                                    : 720 pixels
Height                                   : 306 pixels
Display aspect ratio                     : 2.35:1
Frame rate mode                          : Variable
Frame rate                               : 20.310 FPS
Color space                              : YUV
Chroma subsampling                       : 4:2:0
Bit depth                                : 8 bits
Scan type                                : Progressive
Bits/(Pixel*Frame)                       : 0.106
Stream size                              : 616 MiB (89%)
Title                                    : www.zippymoviez.xyz
Writing library                          : x264 core 148 r2708 86b7198

Language                                 : Telugu
Default                                  : Yes
Forced                                   : No
Color range                              : Limited
Color primaries                          : BT.709
Transfer characteristics                 : BT.709
Matrix coefficients                      : BT.709

Audio
ID                                       : 2
Format                                   : AAC
Format/Info                              : Advanced Audio Codec
Format profile                           : LC
Codec ID                                 : A_AAC-2
Duration                                 : 3 h 1 min
Bit rate                                 : 56.7 kb/s
Channel(s)                               : 2 channels
Channel positions                        : Front: L R
Sampling rate                            : 44.1 kHz
Frame rate                               : 43.066 FPS (1024 SPF)
Compression mode                         : Lossy
Delay relative to video                  : -23 ms
Stream size                              : 73.7 MiB (11%)
Title                                    : www.zippymoviez.xyz
Language                                 : Telugu
Default                                  : Yes
Forced                                   : No

Text
ID                                       : 3
Format                                   : UTF-8
Codec ID                                 : S_TEXT/UTF8
Codec ID/Info                            : UTF-8 Plain Text
Duration                                 : 3 h 0 min
Bit rate                                 : 59 b/s
Count of elements                        : 1987
Stream size                              : 78.4 KiB (0%)
Title                                    : www.zippymoviez.xyz
Default                                  : Yes
Forced                                   : No

Screenshots

c927d4584539a23ca502a834701de60d.png
6dabb11e8feb306d3e41efd03b0a6610.png
1f87b92585ba0675398e49519c77bf86.png
ff24741438c23e07483711b150d0c75c.png
ebccf861591f1e2fee797a7210741cec.png
0968c0b27bbf2a416db086f0b327e0fc.png
051bf5f59eff4d1fa07f2093966da1dd.png

 

Download Links

Quote

 

Please click 'Thanks' as a token of appreciation of our effort.

QnC2C27.png

www.zippymoviez.xyz - Arjun Reddy (2017) Telugu HDRip x264 700MB ESubs.mkv.torrent

Magnet Link

IvRFDeI.gif

  • Like 1

Share this post


Link to post
Share on other sites
Loading...


Create an account or sign in to comment

You need to be a member in order to leave a comment

Create an account

Sign up for a new account in our community. It's easy!

Register a new account

Sign in

Already have an account? Sign in here.

Sign In Now