Sign in to follow this  
Team CR

Duvvada Jagannadham (2017) Telugu 720p TV HDRip x264 AC3 5.1 Team TMR

Recommended Posts

Team CR    1

Duvvada Jagannadham (2017) Telugu 720p TV HDRip x264 AC3 5.1 Team TMR

68f7c8f174480728d5a231036cfa4e38.jpg

General
Complete name               : Duvvada Jagannadham (2017) Telugu 720p TV HDRip x264 AC3 5.1 Team TMR.mkv
Format                      : Matroska
Format version              : Version 4 / Version 2
File size                   : 3.50 GiB
Duration                    : 2h 19mn
Overall bit rate mode       : Variable
Overall bit rate            : 3 593 Kbps
Movie name                  : Team TMR
Encoded date                : UTC 2017-10-17 00:26:10
Writing application         : mkvmerge v8.7.0 ('All of the above') 64bit
Writing library             : libebml v1.3.3 + libmatroska v1.4.4

Video
ID                          : 1
Format                      : AVC
Format/Info                 : Advanced Video Codec
Format profile              : [email protected]
Format settings, CABAC      : Yes
Format settings, ReFrames   : 4 frames
Codec ID                    : V_MPEG4/ISO/AVC
Duration                    : 2h 19mn
Bit rate mode               : Variable
Bit rate                    : 3 271 Kbps
Maximum bit rate            : 40.0 Mbps
Width                       : 1 288 pixels
Height                      : 560 pixels
Display aspect ratio        : 2.35:1
Frame rate mode             : Constant
Frame rate                  : 25.000 fps
Color space                 : YUV
Chroma subsampling          : 4:2:0
Bit depth                   : 8 bits
Scan type                   : Progressive
Bits/(Pixel*Frame)          : 0.181
Stream size                 : 3.19 GiB (91%)
Title                       : Team TMR
Writing library             : x264 core 142 r2431 ac76440
Encoding settings           : cabac=1 / ref=5 / deblock=1:0:0 / analyse=0x3:0x113 / me=umh / subme=8 / psy=1 / psy_rd=1.00:0.00 / mixed_ref=1 / me_range=16 / chroma_me=1 / trellis=1 / 8x8dct=1 / cqm=0 / deadzone=21,11 / fast_pskip=1 / chroma_qp_offset=-2 / threads=6 / lookahead_threads=1 / sliced_threads=0 / slices=4 / nr=0 / decimate=1 / interlaced=0 / bluray_compat=1 / constrained_intra=0 / bframes=3 / b_pyramid=1 / b_adapt=2 / b_bias=0 / direct=3 / weightb=1 / open_gop=1 / weightp=1 / keyint=25 / keyint_min=1 / scenecut=40 / intra_refresh=0 / rc_lookahead=25 / rc=2pass / mbtree=1 / bitrate=3271 / ratetol=1.0 / qcomp=0.60 / qpmin=0 / qpmax=69 / qpstep=4 / cplxblur=20.0 / qblur=0.5 / vbv_maxrate=40000 / vbv_bufsize=30000 / nal_hrd=vbr / filler=0 / ip_ratio=1.40 / aq=1:1.00
Language                    : Telugu
Default                     : Yes
Forced                      : No

Audio
ID                          : 2
Format                      : AC-3
Format/Info                 : Audio Coding 3
Mode extension              : CM (complete main)
Format settings, Endianness : Big
Codec ID                    : A_AC3
Duration                    : 2h 19mn
Bit rate mode               : Constant
Bit rate                    : 320 Kbps
Channel(s)                  : 6 channels
Channel positions           : Front: L C R, Side: L R, LFE
Sampling rate               : 44.1 KHz
Frame rate                  : 28.711 fps (1536 spf)
Compression mode            : Lossy
Stream size                 : 319 MiB (9%)
Title                       : Team TMR
Language                    : Telugu
Default                     : Yes
Forced                      : No

Posted Image Posted Image Posted Image Posted Image Posted Image Posted Image Posted Image Posted Image Posted Image Posted Image Posted Image Posted Image Posted Image Posted Image Posted Image Posted Image Posted Image

~Extreme Seeding Started~
Please click 'Thanks' as a token of appreciation of our effort.

QnC2C27.png

Duvvada Jagannadham (2017) Telugu 720p TV HDRip x264 AC3 5.1 Team TMR.mkv.torrent

Magnet Link

 

 

Share this post


Link to post
Share on other sites
Loading...


Create an account or sign in to comment

You need to be a member in order to leave a comment

Create an account

Sign up for a new account in our community. It's easy!

Register a new account

Sign in

Already have an account? Sign in here.

Sign In Now

Sign in to follow this