~ Hacker ~

Anando Brahma (2017) Telugu HDRip 1CD x264 MP3 700MB

Recommended Posts

~ Hacker ~    9

Anando Brahma (2017) Telugu HDRip  1CD x264  MP3 700MB

hitposter-anandobrahma.jpg

InFo

Quote

Video
ID                                       : 1
Format                                   : AVC
Format/Info                              : Advanced Video Codec
Format profile                           : [email protected]
Format settings                          : CABAC / 4 Ref Frames
Format settings, CABAC                   : Yes
Format settings, RefFrames               : 4 frames
Codec ID                                 : V_MPEG4/ISO/AVC
Duration                                 : 1 h 57 min
Bit rate                                 : 742 kb/s
Width                                    : 720 pixels
Height                                   : 304 pixels
Display aspect ratio                     : 2.35:1
Frame rate mode                          : Constant
Frame rate                               : 30.000 FPS
Color space                              : YUV
Chroma subsampling                       : 4:2:0
Bit depth                                : 8 bits
Scan type                                : Progressive
Bits/(Pixel*Frame)                       : 0.113
Stream size                              : 621 MiB (88%)
Title                                    : www.zippymoviez.xyz
Writing library                          : x264 core 148 r2744 b97ae06
Language                                 : Telugu
Default                                  : Yes
Forced                                   : No

Audio
ID                                       : 2
Format                                   : MPEG Audio
Format version                           : Version 1
Format profile                           : Layer 3
Format settings                          : Joint stereo / MS Stereo
Mode                                     : Joint stereo
Mode extension                           : MS Stereo
Codec ID                                 : A_MPEG/L3
Codec ID/Hint                            : MP3
Duration                                 : 1 h 57 min
Bit rate mode                            : Variable
Bit rate                                 : 102 kb/s
Nominal bit rate                         : 96.0 kb/s
Channel(s)                               : 2 channels
Sampling rate                            : 48.0 kHz
Frame rate                               : 41.667 FPS (1152 SPF)
Compression mode                         : Lossy
Stream size                              : 85.6 MiB (12%)
Title                                    : www.zippymoviez.xyz
Writing library                          : LAME3.99r
Encoding settings                        : -m j -V 4 -q 3 -lowpass 15.1 --abr 96
Language                                 : Telugu
Default                                  : Yes
Forced                                   : No

Screenshots

a9b7f6626648a713c4d14f9d1c62b20c.png
b223dada6e24a5d41513cb123d6eaaf0.png
b1c71b229a8e229906d5b726c27c5516.png
e02e2dd07c818a282e268d180086a8d9.png
8affe04d8881cd58f8c5c35ef59abfdc.png
3b1183c72633428dc8f40b412dc7fa26.png

 

Download Links

Quote

 

Please click 'Thanks' as a token of appreciation of our effor

QnC2C27.png

www.zippymoviez.xyz - Anando Brahma (2017) Telugu HDRip 1CD x264 MP3 700MB.mkv.torrent

Magnet Link

IvRFDeI.gif

  • Like 1

Share this post


Link to post
Share on other sites
Loading...


Create an account or sign in to comment

You need to be a member in order to leave a comment

Create an account

Sign up for a new account in our community. It's easy!

Register a new account

Sign in

Already have an account? Sign in here.

Sign In Now